» » Claws / Grave Wax - Pestilent Formation

Claws / Grave Wax - Pestilent Formation mp3 flac

  • Singer: Claws
  • Album: Pestilent Formation
  • MP3: 1404 mb | FLAC: 1789 mb
  • Released: 2011
  • Style: Death Metal
  • Rating: 4.1/5
  • Votes: 632
  • Format: MIDI ASF ASF AC3 MP1 AAC XM
Claws / Grave Wax - Pestilent Formation mp3 flac

Pestilent Formation (2011) by Claws, Grave Wax. Labels: Horror Pain Gore Death Productions. Songs: Claws - Pestilent Scavenger, Claws - Reaching for the Rotting, Grave Wax - Adipocere Formation, Grave Wax - Sarcophagae Swarm.

extreme music, экстремальная музыка, metal, металл, grindcore, грайндкор, grind, brutal, брутал, black metal, блэк металл, doom metal, дум металл, death metal, дет метал, folk metal, pagan metal, heavy metal, хэви металл, gothic metal, готика, металл альбомы, free music, бесплатная музыка, свободный обмен музыкой, новинки, раритеты, new and rare music, music discussions, discographies, band history, дискографии, истории групп, обсуждение музыки.

Grave Wax - Adipocere Formation. 4. Grave Wax - Sarcophagae Swarm. Pestilent Scavenger" was originally recorded for Relapse Records Underground Death Metal 7" series. The series was cancelled and than Cyclone Empire was about to release the 7" series but nothing came of it. Recording information: Claws: - "Pestilent Scavenger" recorded and mixed at Horrisound Studios in 2009. "Reaching for the Rotting" recorded and mixed at Horrisound Studios in 2010. Grave Wax: - Recorded, mixed and mastered at Forman Performance, Arlington, VA, 2010. Vocals recorded and engineered at CL-Studios, Orlando, FL, 2010.

Pestilent Formation "Split" CD by CLAWS, GRAVE WAX, released 20 September 2011 1. CLAWS - Pestilent Scavenger 2. CLAWS - Reaching For The Rotting 3. GRAVE WAX - Adipocere Formation 4. GRAVE WAX - Sarcophagae Swarm Horror Pain Gore Death Productions unleashes the most brutal underground Death Metal bands active today, each offering two new exclusive tracks on one sordid slab of death! Lasse Pyykkö, the man behind Claws (Hooded Menace, Phlegethon, Acid Witch, Vacant Coffin) performs classic Scandinavian Death Metal in the Finnish style.

Split, 30 September 2011, Relapse Records. 1. Pestilent Scavenger. 2. Reaching for the Rotting. GRAVE WAX. Adipocere Formation. Sarcophagae Swarm. Split, 27 January 2014, Doomentia Records. Obscuria Darkness Enraptured. 3. Dis-Organ-Ized (Impetigo Cover). Split, 2016, Screaming Victims.

Grave Wax: 03. Adipocere Formation 03:43 04. Sarcophagae Swarm 04:04 Total Play Time: 14:15 .

Grave Wax - Adipocere Formation (3:43) 04. Grave Wax - Sarcophagae Swarm (4:05) Полное время альбома: 14:16. INDEX 01 00:00:00 FILE " Claws & Grave Wax - 2011 - Pestilent Formation 3 - Grave Wax - Adipocere Formation. wav" WAVE TRACK 03 AUDIO FLAGS DCP INDEX 01 00:00:00 FILE " Claws & Grave Wax - 2011 - Pestilent Formation 4 - Grave Wax - Sarcophagae Swarm. wav" WAVE TRACK 04 AUDIO FLAGS DCP INDEX 01 00:00:00.

Tracklist

1 Claws Pestilent Scavenger 2:49
2 Claws Reaching For The Rotting 3:39
3 Grave Wax Adipocere Formation 3:43
4 Grave Wax Sarcophagae Swarm 4:04

Companies, etc.

  • Phonographic Copyright (p) – Horror Pain Gore Death Productions
  • Copyright (c) – Horror Pain Gore Death Productions

Credits

  • Bass – Mark Riddick (tracks: 3 to 4)
  • Drums – Brian Forman (tracks: 3 to 4)
  • Guitar – Mike Riddick* (tracks: 3 to 4)
  • Illustration, Graphics [Execution] – Mark Riddick
  • Layout [Album Layout And Arrangement] – Mike Juliano
  • Lyrics By – Kam Lee (tracks: 3 to 4), Kevin Campbell (tracks: 1 to 2), Tanya Sim (tracks: 1 to 2)
  • Mastered By – Mikko Saastamoinen (tracks: 2), Patrick Bruss (tracks: 1)
  • Music By – Lasse Pyykkö (tracks: 1 to 2), Mark Riddick (tracks: 3 to 4), Mike Riddick* (tracks: 3 to 4)
  • Recorded By [Vocals], Engineer – Rob Reider (tracks: 3 to 4)
  • Recorded By, Engineer, Mastered By – Brian Forman (tracks: 3 to 4)
  • Recorded By, Mixed By – Lasse Pyykkö (tracks: 1 to 2)
  • Vocals – Kam Lee (tracks: 3 to 4)
  • Vocals, Guitar, Bass, Drums – Lasse Pyykkö (tracks: 1 to 2)

Notes

Track 1 recorded and mixed at Horrisound Studios, 2009. Mastered 2009.
Track 2 recorded and mixed at Horrisound Studios, 2010. Mastered 2011.
Tracks 3 to 4 recorded, engineered and mastered at Forman Performance, Arlington, VA, 2010
Vocals on tracks 3 to 4 recorded, engineered and exhumed at CL studios in Orlando, FL, 2010

Barcode and Other Identifiers

  • Barcode (Scanned): 707541384193
  • Barcode (Printed): 7 07541 38419 3
  • Matrix / Runout: WWW.COPYCATSMEDIA.COM 9774-CD-0013 11-237-05
  • Mastering SID Code: IFPI LK13
  • Mould SID Code: IFPI L823