» » Boston Symphony / Erich Leinsdorf - Menotti - The Death Of The Bishop Of Brindisi

Boston Symphony / Erich Leinsdorf - Menotti - The Death Of The Bishop Of Brindisi mp3 flac

  • Singer: Boston Symphony
  • Album: The Death Of The Bishop Of Brindisi
  • MP3: 1125 mb | FLAC: 1262 mb
  • Released: 1965
  • Country: Canada
  • Style: Modern
  • Rating: 4.2/5
  • Votes: 300
  • Format: XM AAC WMA AUD AC3 AAC WMA
Boston Symphony / Erich Leinsdorf - Menotti - The Death Of The Bishop Of Brindisi mp3 flac

A. The Death Of The Bishop Of Brindisi (Part 1). Composed By – Menotti. B1. The Death Of The Bishop Of Brindisi (Concluded). B2. Gurre-Lieder: Song Of The Wood-Dove. Composed By – Schönberg. Conductor – Erich Leinsdorf. Orchestra – Boston Symphony Orchestra. Vocals – George London (2) (tracks: A), Lili Chookasian. Other Versions (3 of 3) View All. Cat.

Behold the singing children. Erich Leinsdorf, Boston Symphony Orchestra. Song of the Wood-Dove.

The Gian Carlo Menotti opera "The Death of the Bishop of Brindisi" was written in 1963, and recorded Oct 1964 with George London and Lili Chookasian. The 31-minute, one-act drama focuses on a dying Medieval bishop who is wracked by guilt over his role in the Children's Crusade (1212 AD). George London is a fine actor, but somehow his sneering tone doesn't suit me for the character of a noble minister who is suffering intense heartache. Chookasian, however, is great as the Nun who tries to comfort the guilt-ridden bishop. The 36-page booklet includes texts, translations, a full libretto of the Menotti (although a few words are a little different from what the soloists actually sing), a bio on Erich Leinsdorf, extensive program notes, and a two-page "History of Living Stereo.

Erich Leinsdorf, Conductor, Boston Symphony Orchestra, Boston Chorus Pro Musica. Good men let us pass" SONGWRITER "Giuseppe Verdi" INDEX 01 25:39:42 TRACK 07 AUDIO TITLE "The Death of the Bishop of Brindisi: III. Behold the singing children" SONGWRITER "Giuseppe Verdi" INDEX 01 28:47:40 TRACK 08 AUDIO TITLE "The Death of the Bishop of Brindisi: IV. Away, away!" SONGWRITER "Giuseppe Verdi" INDEX 01 30:59:60 TRACK 09 AUDIO TITLE "The Death of the Bishop of Brindisi: V. Give them your blessing!" SONGWRITER "Giuseppe Verdi" INDEX 01 31:59:70 TRACK 10 AUDIO TITLE "The Death of the Bishop of Brindisi: VI. Why did I let them leave?"

Erich Leinsdorf Conductor. CDs: 2 Tracks: 32 Length: 2:10:09. CD 1 of 2. Giuseppe Verdi Composer. Requiem Mass, for soloists, chorus, and orchestra (Manzoni Requiem) Work. Gian Carlo Menotti Composer. The Death of the Bishop of Brindisi, cantata for mezzo-soprano, bass, chorus, children's chorus and orchestra Work. New England Conservatory Chorus Chorus/Choir, Lorna Cooke de Varon Director, Erich Leinsdorf Conductor, Boston Symphony Orchestra Orchestra, Lili Chookasian Mezzo-Soprano, Berj Zamkochian Director, George London Bass. 5. nd now the night begins.

Album · 2016 · 4 Songs. Symphony No. 1 in D Major: IV. Stürmisch bewegt. Erich Leinsdorf & Boston Symphony Orchestra. Released: 11 Nov 2016. 1963, 2016 Sony Music Entertainment. More By Erich Leinsdorf. Verdi: Messa da Requiem; Menotti: The Death Of The Bishop Of Brindisi; Schönberg: Gurrelieder. Tchaikovsky: Greatest Hits. Mozart: Cosi fan tutte. Fine: Symphony 1962, Toccata Concertante, Serious Song For String Orchestra.

Boston Symphony Orchestra, Lili Chookasian (4), George London (10). Angus Dei Disc 2: Verdi's Requiem, concluded 1. Lux aeterna 2. Libera me, Domine 3. Dies irae 4. Libera me, Domine The Death of the Bishop of Brindisi 5. And now the night begins 6. Good men let us pass 7. Behold the singing children 8. Away, away! 9. Give them your blessing! 10. Why did I let them leave?

Boston Symphony Orchestra, New England Conservatory Chorus, St. Joseph's High School Glee Club members. Lili Chookasian (Mezzo Soprano), George London (Bass). RCA Victor Living Stereo: 63747.

Gian Carlo Menotti, Erich Leinsdorf, Boston Symphony Orchestra. The Death Of The Bishop Of Brindisi. 1965, Vinyl (LP, Stereo).

Tracklist

The Death Of The Bishop Of Brindisi (Part 1)
The Death Of The Bishop Of Brindisi (Concluded)
Gurre-Lieder: Song Of The Wood-Dove

Versions

Category Artist Title (Format) Label Category Country Year
LM-2785, LM 2785 Boston Symphony* / Erich Leinsdorf - Menotti* Boston Symphony* / Erich Leinsdorf - Menotti* - The Death Of The Bishop Of Brindisi ‎(LP, Album, Mono) RCA Victor Red Seal, RCA Victor Red Seal LM-2785, LM 2785 Canada 1965
LSC-2785, LSC_2785 Boston Symphony* / Erich Leinsdorf - Menotti* Boston Symphony* / Erich Leinsdorf - Menotti* - The Death Of The Bishop Of Brindisi ‎(LP, Album) RCA Victor Red Seal, RCA Victor Red Seal LSC-2785, LSC_2785 US 1965
SB 6609 Boston Symphony* / Erich Leinsdorf - Menotti* Boston Symphony* / Erich Leinsdorf - Menotti* - The Death Of The Bishop Of Brindisi ‎(LP, Album) RCA Victor Red Seal SB 6609 UK 1965
RB 6609 Boston Symphony* / Erich Leinsdorf - Menotti* Boston Symphony* / Erich Leinsdorf - Menotti* - The Death Of The Bishop Of Brindisi ‎(LP, Album, Mono) RCA Victor Red Seal RB 6609 UK 1965
LM 2785 Boston Symphony* / Erich Leinsdorf - Menotti* Boston Symphony* / Erich Leinsdorf - Menotti* - The Death Of The Bishop Of Brindisi ‎(LP, Album, Mono) RCA Victor Red Seal LM 2785 US 1965
Related mp3, flac albums at Boston Symphony / Erich Leinsdorf - Menotti - The Death Of The Bishop Of Brindisi: